<?xml version="1.0" standalone="no"?>
<!DOCTYPE svg PUBLIC "-//W3C//DTD SVG 1.1//EN" "http://www.w3.org/Graphics/SVG/1.1/DTD/svg11.dtd" >
<svg xmlns="http://www.w3.org/2000/svg">
<metadata>Generated by IcoMoon</metadata>
<defs>
<font id="CRM30" horiz-adv-x="512">
<font-face units-per-em="512" ascent="480" descent="-32" />
<missing-glyph horiz-adv-x="512" />
<glyph unicode="&#x20;" d="" />
<glyph unicode="&#xe900;" glyph-name="bg" d="M400 224c0-79.529-64.471-144-144-144s-144 64.471-144 144c0 79.529 64.471 144 144 144s144-64.471 144-144z" />
<glyph unicode="&#xe901;" glyph-name="calendar" d="M201.4 130.4h-31.2v-15.6h31.2v15.6zM201.4 169.4h-31.2v-15.6h31.2v15.6zM201.4 208.4h-31.2v-15.6h31.2v15.6zM341.8 208.4h-31.2v-15.6h31.2v15.6zM271.6 130.4h-31.2v-15.6h31.2v15.6zM341.8 130.4h-31.2v-15.6h31.2v15.6zM396.4 348.8h-31.2v7.8c0 21.6-17.4 39-39 39h-7.8c-21.6 0-39-17.4-39-39v-7.8h-46.8v7.8c0 21.6-17.4 39-39 39h-7.8c-21.6 0-39-17.4-39-39v-7.8h-31.2c-17.2 0-31.2-14-31.2-31.2v-234c0-17.2 14-31.2 31.2-31.2h280.8c17.2 0 31.2 14 31.2 31.2v234c0 17.2-14 31.2-31.2 31.2zM302.8 356.6c0 8.6 7 15.6 15.6 15.6h7.8c8.6 0 15.6-7 15.6-15.6v-39c0-8.6-7-15.6-15.6-15.6h-7.8c-8.6 0-15.6 7-15.6 15.6v39zM170.2 356.6c0 8.6 7 15.6 15.6 15.6h7.8c8.6 0 15.6-7 15.6-15.6v-39c0-8.6-7-15.6-15.6-15.6h-7.8c-8.6 0-15.6 7-15.6 15.6v39zM404.2 91.4c0-8.6-7-15.6-15.6-15.6h-265.2c-8.6 0-15.6 7-15.6 15.6v148.2h296.4v-148.2zM404.2 255.2h-296.4v54.6c0 8.6 7 15.6 15.6 15.6h23.4v-7.8c0-21.6 17.4-39 39-39h7.8c21.6 0 39 17.4 39 39v7.8h46.8v-7.8c0-21.6 17.4-39 39-39h7.8c21.6 0 39 17.4 39 39v7.8h23.4c8.6 0 15.6-7 15.6-15.6v-54.6zM341.8 169.4h-31.2v-15.6h31.2v15.6zM271.6 208.4h-31.2v-15.6h31.2v15.6zM271.6 169.4h-31.2v-15.6h31.2v15.6z" />
<glyph unicode="&#xe902;" glyph-name="check" d="M231.6 109.6l-81 70.8c-4 3.4-4.4 9.6-1 13.6l19 21.6c3.4 4 9.6 4.4 13.6 1l50.6-44.4 132 165c3.4 4.2 9.4 4.8 13.4 1.4l22.4-18c4.2-3.4 4.8-9.4 1.4-13.4l-157-196.2c-3-4.4-9.2-5-13.4-1.4z" />
<glyph unicode="&#xe903;" glyph-name="checkmark" d="M234.6 167l-40.4 35.4c-2 1.8-2.2 4.8-0.4 6.8l9.4 10.8c1.8 2 4.8 2.2 6.8 0.4l25.4-22.2 66 82.4c1.6 2 4.6 2.4 6.8 0.8l11.2-9c2-1.6 2.4-4.6 0.8-6.8l-78.6-98.2c-1.8-2-5-2.2-7-0.4z" />
<glyph unicode="&#xe904;" glyph-name="chongyin" d="M468.116 180.86h-15.022v29.34c0 16.228-14.092 29.431-31.414 29.431h-57.87c-17.321 0-31.413-13.203-31.413-29.431v-29.34h-15.023c-18.077 0-32.783-14.706-32.783-32.783v-42.267c0-18.077 14.706-32.783 32.783-32.783 5.523 0 10 4.477 10 10s-4.477 10-10 10c-7.049 0-12.783 5.734-12.783 12.783v42.267c0 7.048 5.734 12.783 12.783 12.783h150.742c7.049 0 12.783-5.734 12.783-12.783v-42.267c0-7.048-5.734-12.783-12.783-12.783-5.522 0-10-4.477-10-10s4.478-10 10-10c18.077 0 32.783 14.706 32.783 32.783v42.267c0 18.077-14.706 32.783-32.783 32.783zM352.397 210.2c0 5.2 5.12 9.431 11.413 9.431h57.869c6.294 0 11.414-4.23 11.414-9.431v-29.34h-80.696v29.34zM443.094 127.767h-100.697c-5.522 0-10-4.477-10-10v-57.656c0-16.228 14.092-29.431 31.413-29.431h57.869c17.322 0 31.414 13.203 31.414 29.431v57.656c0.001 5.523-4.477 10-9.999 10zM433.094 60.111c0-5.2-5.12-9.431-11.414-9.431h-57.87c-6.293 0-11.413 4.23-11.413 9.431v47.656h80.696v-47.656zM239.413 115.453h-166.413c-8.271 0-15 6.729-15 15v140.798h368.142v-5.418c0-7.18 5.82-13 13-13s13 5.82 13 13v68.242c0 22.607-18.393 41-41 41h-338.142c-22.607 0-41-18.393-41-41v-203.622c0-22.607 18.393-41 41-41h166.413c7.18 0 13 5.82 13 13 0 7.179-5.82 13-13 13zM73 349.075h338.142c8.271 0 15-6.729 15-15v-36.824h-368.142v36.824c0 8.271 6.729 15 15 15zM84.556 167.736h26v-26h-26v26zM124.556 167.736h26v-26h-26v26zM164.556 167.736h26v-26h-26v26zM204.556 167.736h26v-26h-26v26z" />
<glyph unicode="&#xe906;" glyph-name="dongjie" d="M456.496 162.085h-11.806v50.749c0 16.228-14.092 29.43-31.413 29.43h-57.87c-17.321 0-31.414-13.202-31.414-29.43v-50.749h-11.806c-19.851 0-36-16.149-36-36v-52.841c0-19.851 16.149-36 36-36h144.308c19.851 0 36 16.149 36 36v52.841c0.001 19.85-16.149 36-35.999 36zM343.993 212.833c0 5.2 5.12 9.43 11.414 9.43h57.87c6.293 0 11.413-4.23 11.413-9.43v-50.749h-80.696v50.749zM472.496 73.244c0-8.822-7.178-16-16-16h-144.308c-8.822 0-16 7.178-16 16v52.841c0 8.822 7.178 16 16 16h144.308c8.822 0 16-7.178 16-16v-52.841zM242.009 115.453h-166.413c-8.271 0-15 6.729-15 15v140.798h368.142v-5.418c0-7.18 5.82-13 13-13s13 5.82 13 13v68.242c0 22.607-18.393 41-41 41h-338.142c-22.607 0-41-18.393-41-41v-203.622c0-22.607 18.393-41 41-41h166.413c7.18 0 13 5.82 13 13 0 7.179-5.82 13-13 13zM75.596 349.075h338.142c8.271 0 15-6.729 15-15v-36.824h-368.142v36.824c0 8.271 6.729 15 15 15zM87.152 167.736h26v-26h-26v26zM127.152 167.736h26v-26h-26v26zM167.152 167.736h26v-26h-26v26zM207.152 167.736h26v-26h-26v26zM385.797 111.886h-2.912c-7.18 0-13-5.82-13-13s5.82-13 13-13h2.912c7.18 0 13 5.82 13 13s-5.82 13-13 13z" />
<glyph unicode="&#xe907;" glyph-name="error" d="M214.4 275.8l-10.2-10.2c-1.8-1.8-1.8-4.8 0-6.8l86.6-86.6c1.8-1.8 4.8-1.8 6.8 0l10.2 10.2c1.8 1.8 2 4.8 0.2 6.8l-86.8 86.8c-2 1.6-5 1.6-6.8-0.2zM204.2 182.4l10.2-10.2c1.8-1.8 4.8-1.8 6.8 0l86.6 86.6c1.8 1.8 1.8 4.8 0 6.8l-10.2 10.2c-1.8 1.8-4.8 2-6.8 0.2l-86.8-86.8c-1.6-2-1.6-5 0.2-6.8z" />
<glyph unicode="&#xe908;" glyph-name="guashi" d="M236.915 115.453h-166.413c-8.271 0-15 6.729-15 15v140.798h368.143v-5.418c0-7.18 5.82-13 13-13s13 5.82 13 13v68.242c0 22.607-18.392 41-41 41h-338.143c-22.607 0-41-18.393-41-41v-203.622c0-22.607 18.392-41 41-41h166.413c7.18 0 13 5.82 13 13 0 7.179-5.82 13-13 13zM70.502 349.075h338.143c8.271 0 15-6.729 15-15v-36.824h-368.143v36.824c0 8.271 6.728 15 15 15zM82.058 167.736h26v-26h-26v26zM122.058 167.736h26v-26h-26v26zM162.058 167.736h26v-26h-26v26zM202.058 167.736h26v-26h-26v26zM448.534 231.641c-3.223 1.293-43.67 17.294-71.11 17.294-28.897 0-70.557-17.812-74.131-19.364-3.479-1.386-31.344-13.436-31.344-43.592 0-65.867 27.647-106.036 50.839-128.135 25.238-24.048 50.516-32.346 51.579-32.688 0.994-0.319 2.025-0.479 3.057-0.479 1.031 0 2.062 0.16 3.057 0.479 1.063 0.341 26.342 8.639 51.579 32.688 23.193 22.099 50.84 62.269 50.84 128.135-0.001 31.947-31.039 44.418-34.366 45.662zM418.915 72.948c-17.171-16.575-34.609-24.768-41.49-27.583-6.899 2.823-24.329 11.016-41.491 27.583-29.186 28.173-43.984 66.203-43.984 113.031 0 17.504 17.973 24.711 18.68 24.987 0.168 0.063 0.335 0.131 0.499 0.203 0.406 0.178 40.866 17.766 66.296 17.766 24.089 0 63.374-15.739 63.766-15.898 0.129-0.052 0.21-0.083 0.34-0.13 0.873-0.321 21.37-8.090 21.37-26.928-0.002-46.828-14.8-84.857-43.986-113.031zM382.869 197.759c-6.476 0-11.978-1.391-16.502-4.171-4.527-2.783-7.805-6.457-9.839-11.022-2.035-4.567-3.051-8.428-3.051-11.582 0-3.156 0.747-5.75 2.241-7.784 1.495-2.035 3.942-3.051 7.348-3.051 4.898 0 7.887 2.531 8.966 7.596 0.914 4.151 2.491 7.41 4.733 9.777s4.67 3.549 7.285 3.549c2.617 0 4.877-1.058 6.787-3.176s2.865-4.629 2.865-7.534c0-6.227-1.079-10.959-3.238-14.197s-5.687-6.6-10.586-10.087c-3.654-2.574-6.145-5.417-7.471-8.531-1.329-3.113-1.993-8.157-1.993-15.13 0-7.806 3.319-11.707 9.962-11.707 6.309 0 9.466 3.612 9.466 10.834 0 4.317 0.454 7.513 1.37 9.589 0.912 2.074 3.652 5.106 8.219 9.092 4.564 3.985 7.887 7.97 9.963 11.955 2.074 3.986 3.113 9.963 3.113 17.934s-2.677 14.571-8.032 19.802c-5.355 5.229-12.558 7.844-21.606 7.844zM380.75 102.364c-3.073 0-5.709-1.1-7.907-3.3-2.201-2.199-3.301-4.836-3.301-7.909 0-3.071 1.1-5.729 3.301-7.97 2.197-2.242 4.834-3.362 7.907-3.362 3.071 0 5.73 1.121 7.971 3.362s3.363 4.899 3.363 7.97c0 3.073-1.122 5.709-3.363 7.909s-4.9 3.3-7.971 3.3z" />
<glyph unicode="&#xe909;" glyph-name="heimingdan" d="M252.2 94.9h-145.7v22.9c0 22.5 18.3 40.8 40.8 40.8h92c0.5 8.9 2 17.6 4.3 26h-96.3c-36.8 0-66.8-30-66.8-66.8v-35.9c0-7.2 5.8-13 13-13h176c-6.9 8-12.7 16.7-17.3 26z" />
<glyph unicode="&#xe90a;" glyph-name="huanka" d="M392.116 333.045h-315.465c-22.607 0-41-18.393-41-41v-183.78c0-22.607 18.392-41 41-41h296.189c7.18 0 13 5.82 13 13s-5.82 13-13 13h-296.189c-8.271 0-15 6.729-15 15v126.625h345.465v-150.089c0-7.18 5.82-13 13-13s13 5.82 13 13v207.244c0 22.607-18.392 41-41 41zM61.651 260.89v31.155c0 8.271 6.729 15 15 15h315.465c8.271 0 15-6.729 15-15v-31.155h-345.465zM88.207 145.549h26v-26h-26v26zM128.207 145.549h26v-26h-26v26zM168.207 145.549h26v-26h-26v26zM208.207 145.549h26v-26h-26v26zM435.349 386.181h-322.804c-7.18 0-13-5.82-13-13s5.82-13 13-13h322.803c8.271 0 15-6.729 15-15v-204.158c0-7.18 5.82-13 13-13s13 5.82 13 13v204.158c0.001 22.608-18.392 41-40.999 41z" />
<glyph unicode="&#xe90b;" glyph-name="hyzl" d="M428 456.4h-207c-3.2 0-6.2-1.3-8.5-3.5l-153-153c-2.3-2.3-3.5-5.3-3.5-8.5v-275.7c0-15.5 12.5-28 28-28h344c15.5 0 28 12.5 28 28v412.7c0 15.5-12.5 28-28 28zM213.3 417v-103.9c0-7.7-6.3-14-14-14h-103.9l117.9 117.9zM430 15.7c0-1.1-0.9-2-2-2h-344c-1.1 0-2 0.9-2 2v269.4h117.3c15.5 0 28 12.5 28 28v117.3h200.7c1.1 0 2-0.9 2-2v-412.7zM344.7 262.6c8.8 0 16-7.2 16-16v-6h-102v6c0 8.8 7.2 16 16 16h70zM344.7 276.6h-70c-16.6 0-30-13.4-30-30v-10c0-5.5 4.5-10 10-10h110c5.5 0 10 4.5 10 10v10c0 16.5-13.5 30-30 30v0zM309.7 354.7c12.7 0 23-10.3 23-23 0-7.3-3.3-16.6-8.3-23.8-4.6-6.6-10.1-10.6-14.7-10.6s-10.1 3.9-14.7 10.6c-5 7.2-8.3 16.5-8.3 23.8 0 12.7 10.3 23 23 23zM309.7 368.7c-20.4 0-37-16.6-37-37s16.6-48.3 37-48.3 37 27.9 37 48.3c0 20.5-16.6 37-37 37v0zM372.7 165.7h-230.5c-1.1 0-2 0.9-2 2v10c0 1.1 0.9 2 2 2h230.5c1.1 0 2-0.9 2-2v-10c0-1.1-0.9-2-2-2zM372.7 115.1h-230.5c-1.1 0-2 0.9-2 2v10c0 1.1 0.9 2 2 2h230.5c1.1 0 2-0.9 2-2v-10c0-1.1-0.9-2-2-2zM372.7 64.9h-230.5c-1.1 0-2 0.9-2 2v10c0 1.1 0.9 2 2 2h230.5c1.1 0 2-0.9 2-2v-10c0-1.1-0.9-2-2-2z" />
<glyph unicode="&#xe90c;" glyph-name="info" d="M271.8 291.6c0-8.726-7.074-15.8-15.8-15.8s-15.8 7.074-15.8 15.8c0 8.726 7.074 15.8 15.8 15.8s15.8-7.074 15.8-15.8zM266 256.4h-20c-2.2 0-4-1.8-4-4v-80c0-2.2 1.8-4 4-4h20c2.2 0 4 1.8 4 4v80c0 2.4-1.8 4-4 4z" />
<glyph unicode="&#xe90d;" glyph-name="jfcx" d="M462.5 301.8l-153 153c-2.3 2.3-5.3 3.5-8.5 3.5h-207c-15.5 0-28-12.5-28-28v-412.7c0-15.5 12.5-28 28-28h263.6c5.5 0 10 4.5 10 10v6c0 5.5-4.5 10-10 10h-263.6c-1.1 0-2 0.9-2 2v412.7c0 1.1 0.9 2 2 2h200.7v-117.3c0-15.5 12.5-28 28-28h117.3v-38.7c0-5.5 4.5-10 10-10h6c5.5 0 10 4.5 10 10v45c0 3.2-1.3 6.3-3.5 8.5zM308.7 315v103.9l117.9-117.9h-103.9c-7.8 0-14 6.3-14 14zM165.5 173.2h-21.8c-1.1 0-2 0.9-2 2v10c0 1.1 0.9 2 2 2h21.8c1.1 0 2-0.9 2-2v-10c0-1.1-0.9-2-2-2zM165.5 223.8h-21.8c-1.1 0-2 0.9-2 2v10c0 1.1 0.9 2 2 2h21.8c1.1 0 2-0.9 2-2v-10c0-1.1-0.9-2-2-2zM165.5 123.1h-21.8c-1.1 0-2 0.9-2 2v10c0 1.1 0.9 2 2 2h21.8c1.1 0 2-0.9 2-2v-10c0-1.1-0.9-2-2-2zM251.4 173.2h-53.3c-1.1 0-2 0.9-2 2v10c0 1.1 0.9 2 2 2h53.3c1.1 0 2-0.9 2-2v-10c0-1.1-0.9-2-2-2zM251.4 123.1h-53.3c-1.1 0-2 0.9-2 2v10c0 1.1 0.9 2 2 2h53.3c1.1 0 2-0.9 2-2v-10c0-1.1-0.9-2-2-2zM297.4 223.8h-99.3c-1.1 0-2 0.9-2 2v10c0 1.1 0.9 2 2 2h99.3c1.1 0 2-0.9 2-2v-10c0-1.1-0.9-2-2-2zM489.7 13.8l-33.3 53.2c17 18.3 27.5 42.8 27.5 69.8 0 56.5-45.8 102.3-102.3 102.3s-102.3-45.8-102.3-102.3 45.7-102.4 102.2-102.4c11.5 0 22.6 1.9 32.9 5.4l32.8-52.5c2.3-3.6 6.2-5.6 10.2-5.6 2.2 0 4.4 0.6 6.3 1.8l22 13.8c5.8 3.5 7.5 10.9 4 16.5zM299.2 136.8c0 45.4 36.9 82.3 82.3 82.3s82.3-36.9 82.3-82.3c0-45.4-36.9-82.3-82.3-82.3s-82.3 36.9-82.3 82.3zM458.7-0.8l-29.4 47.1c5.3 2.8 10.4 6.1 15.1 9.8l29.6-47.3-15.3-9.6zM381.5 173.9c20.5 0 37.2-16.7 37.2-37.2s-16.7-37.2-37.2-37.2-37.2 16.7-37.2 37.2 16.7 37.2 37.2 37.2zM381.5 187.9c-28.3 0-51.2-22.9-51.2-51.2s22.9-51.2 51.2-51.2 51.2 22.9 51.2 51.2-22.9 51.2-51.2 51.2v0z" />
<glyph unicode="&#xe90e;" glyph-name="jflr" d="M430 38.3v-20.7c0-1.1-0.9-2-2-2h-344c-1.1 0-2 0.9-2 2v412.7c0 1.1 0.9 2 2 2h200.7v-117.3c0-15.5 12.5-28 28-28h117.3v-28.7c0-5.5 4.5-10 10-10h6c5.5 0 10 4.5 10 10v35c0 3.2-1.3 6.2-3.5 8.5l-153 153c-2.3 2.3-5.3 3.5-8.5 3.5h-207c-15.5 0-28-12.5-28-28v-412.7c0-15.5 12.5-28 28-28h344c15.5 0 28 12.5 28 28v20.7c0 5.5-4.5 10-10 10h-6c-5.5 0-10-4.4-10-10zM298.7 418.9l117.9-117.9h-103.9c-7.7 0-14 6.3-14 14v103.9zM155.5 165.2h-21.8c-1.1 0-2 0.9-2 2v10c0 1.1 0.9 2 2 2h21.8c1.1 0 2-0.9 2-2v-10c0-1.1-0.9-2-2-2zM155.5 215.8h-21.8c-1.1 0-2 0.9-2 2v10c0 1.1 0.9 2 2 2h21.8c1.1 0 2-0.9 2-2v-10c0-1.1-0.9-2-2-2zM155.5 115.1h-21.8c-1.1 0-2 0.9-2 2v10c0 1.1 0.9 2 2 2h21.8c1.1 0 2-0.9 2-2v-10c0-1.1-0.9-2-2-2zM361.3 165.2h-173.1c-1.1 0-2 0.9-2 2v10c0 1.1 0.9 2 2 2h173.2c1.1 0 2-0.9 2-2v-10c-0.1-1.1-1-2-2.1-2zM318.8 115.1h-130.6c-1.1 0-2 0.9-2 2v10c0 1.1 0.9 2 2 2h130.6c1.1 0 2-0.9 2-2v-10c0-1.1-0.9-2-2-2zM361.3 215.8h-173.1c-1.1 0-2 0.9-2 2v10c0 1.1 0.9 2 2 2h173.2c1.1 0 2-0.9 2-2v-10c-0.1-1.1-1-2-2.1-2zM462.6 220.7l15.3-9.5-95.2-152.4c-0.1-0.2-0.3-0.3-0.5-0.4l-15.1 9.2c0 0.2 0.1 0.4 0.2 0.6l95.3 152.5zM461.3 238.3c-4 0-7.9-2-10.2-5.6l-97.5-156c-1.4-2.3-2.3-4.8-2.6-7.5l-3.5-36c-0.3-2.7 1-5.3 3.3-6.7 1.2-0.7 2.5-1.1 3.8-1.1 1.2 0 2.4 0.3 3.5 0.9l31.9 18.3c2.5 1.4 4.6 3.4 6.1 5.9l97.3 155.7c3.5 5.6 1.8 13-3.8 16.5l-22 13.8c-1.9 1.2-4.1 1.8-6.3 1.8v0z" />
<glyph unicode="&#xe90f;" glyph-name="lock" d="M384 217h-37v95c0 33.6-27.4 61-61 61h-60c-33.6 0-61-27.4-61-61v-95h-37c-11.6 0-21-9.4-21-21v-100c0-11.6 9.4-21 21-21h256c11.6 0 21 9.4 21 21v100c0 11.6-9.4 21-21 21zM183 217v91c0 25.9 21.1 47 47 47h52c25.9 0 47-21.1 47-47v-91h-146zM387 188v-84c0-6.1-4.9-11-11-11h-240c-6.1 0-11 4.9-11 11v84c0 6.1 4.9 11 11 11h240c6.1 0 11-4.9 11-11zM272 136c0-8.837-7.163-16-16-16s-16 7.163-16 16c0 8.837 7.163 16 16 16s16-7.163 16-16z" />
<glyph unicode="&#xe910;" glyph-name="logo" d="M347.9 300c0 24.6-20 44.5-44.6 44.5h-103.8c-5.5 0-10-4.5-10-10v-68.9c0 0 0 0 0-0.1 0 0 0 0 0-0.1 0-5.5 4.5-10 10-10h103.8c13.5 0 24.6-10.9 24.6-24.4l-2.3-94.6c-0.1-5.5 4.2-10.1 9.8-10.2 0.1 0 0.2 0 0.2 0 5.4 0 9.9 4.3 10 9.8l2.3 94.7c0 0.1 0 0.2 0 0.2 0 13.9-6.4 26.4-16.5 34.5 10.1 8.2 16.5 20.7 16.5 34.6zM209.5 275.4v49.1h93.8c13.6 0 24.6-11 24.6-24.5s-11-24.5-24.6-24.5h-93.8zM189.5 181.3v-47.4c0-5.5 4.5-10 10-10s10 4.5 10 10v47.4c0 5.5-4.5 10-10 10s-10-4.4-10-10zM273.3 127.7c0 0 0 0 0 0 2.9 0 5.6 1.2 7.4 3.3l39.1 43.6c3.7 4.1 3.3 10.4-0.8 14.1s-10.4 3.3-14.1-0.8l-31.7-35.3-119.4 132.3c-2.8 3.1-7.2 4.1-11 2.6-3.9-1.5-6.4-5.2-6.4-9.3v-142c0-5.5 4.5-10 10-10s10 4.5 10 10v116l109.5-121.2c1.9-2.1 4.6-3.3 7.4-3.3zM394.6 278.3c-3.9 1.5-8.3 0.4-11-2.7l-25.6-28.6c-3.7-4.1-3.3-10.4 0.8-14.1s10.4-3.3 14.1 0.8l8.2 9.1v-106.6c0-5.5 4.5-10 10-10s10 4.5 10 10v132.8c-0.1 4.1-2.7 7.8-6.5 9.3zM358.2 90.9c-28.5-20.9-62.3-31.9-97.8-31.9-91.2 0-165.4 74-165.4 165s74.2 165 165.4 165c32.1 0 63.2-9.2 90-26.6 4.6-3 10.8-1.7 13.8 2.9s1.7 10.8-2.9 13.8c-30 19.6-64.9 29.9-100.9 29.9-102.2 0-185.4-83-185.4-185s83.2-185 185.4-185c39.8 0 77.7 12.4 109.6 35.8 4.5 3.3 5.4 9.5 2.2 14-3.3 4.4-9.6 5.4-14 2.1z" />
<glyph unicode="&#xe911;" glyph-name="lpdh" d="M458 353.9h-107.7c17.4 20.1 16.5 50.5-2.6 69.6-10 10-23.1 15-36.2 15s-26.2-5-36.2-15c-9.5-9.5-15.5-21.1-19.3-32.5-3.8 11.4-9.8 23-19.3 32.5-10 10-23.1 15-36.2 15s-26.2-5-36.2-15c-19.1-19.1-19.9-49.5-2.6-69.6h-107.7c-15.5 0-28-12.5-28-28v-84c0-15.5 12.5-28 28-28h12v-176.5c0-15.5 12.5-28 28-28h324c15.5 0 28 12.5 28 28v176.5h12c15.5 0 28 12.5 28 28v84c0 15.5-12.5 28-28 28zM188.3 401.6c5.8 5.8 13.5 9 21.8 9 8.2 0 15.9-3.2 21.8-9 10.3-10.3 14.6-25 16.4-35.4 0.8-4.6 1.2-8.8 1.3-12.3h-55.1c-2.5 1.2-4.5 2.6-6.2 4.2-5.8 5.8-9 13.5-9 21.8s3.2 15.9 9 21.7zM211 35.4h-117c-1.1 0-2 0.9-2 2v188.5h119v-190.5zM211 239.9h-157c-1.1 0-2 0.9-2 2v84c0 1.1 0.9 2 2 2h157v-88zM285 25.4h-58v312.4c0.4 0 0.7 0.1 1.1 0.1h55.8c0.4 0 0.7-0.1 1.1-0.1v-312.4zM262.5 353.9c0.2 3.4 0.5 7.6 1.3 12.3 1.8 10.5 6.1 25.1 16.4 35.4 5.8 5.8 13.5 9 21.8 9 8.2 0 15.9-3.2 21.8-9 5.8-5.8 9-13.5 9-21.8s-3.2-15.9-9-21.8c-1.6-1.6-3.7-3-6.2-4.2h-55.1zM420 37.4c0-1.1-0.9-2-2-2h-117v190.5h119v-188.5zM460 241.9c0-1.1-0.9-2-2-2h-157v88h157c1.1 0 2-0.9 2-2v-84z" />
<glyph unicode="&#xe912;" glyph-name="nav" d="M104.8 353.6h302.4c4 0 7.2-3.2 7.2-7.2v-14.4c0-4-3.2-7.2-7.2-7.2h-302.4c-4 0-7.2 3.2-7.2 7.2v14.4c0 4 3.2 7.2 7.2 7.2zM104.8 238.4h302.4c4 0 7.2-3.2 7.2-7.2v-14.4c0-4-3.2-7.2-7.2-7.2h-302.4c-4 0-7.2 3.2-7.2 7.2v14.4c0 4 3.2 7.2 7.2 7.2zM104.8 123.2h302.4c4 0 7.2-3.2 7.2-7.2v-14.4c0-4-3.2-7.2-7.2-7.2h-302.4c-4 0-7.2 3.2-7.2 7.2v14.4c0 4 3.2 7.2 7.2 7.2z" />
<glyph unicode="&#xe913;" glyph-name="search" d="M404 95.8l-66.8 78.2c16.8 22 26.8 49.2 26.8 78.8 0 71.6-58 129.6-129.6 129.6s-129.6-58-129.6-129.6c0-71.6 58-129.6 129.6-129.6 27.8 0 53.4 8.8 74.4 23.6l65.4-76.6c4.6-5.6 13-6.2 18.4-1.4l10 8.6c5.4 4.6 6.2 13 1.4 18.4zM234.4 159.2c-51.6 0-93.6 42-93.6 93.6s42 93.6 93.6 93.6c51.6 0 93.6-42 93.6-93.6 0-51.8-41.8-93.6-93.6-93.6z" />
<glyph unicode="&#xe914;" glyph-name="shanchu" d="M127.292 408.106c-4.916 5.232-13.144 5.489-18.376 0.572-5.232-4.916-5.489-13.144-0.572-18.376l15.824-16.842h-40.187c-22.607 0-41-18.393-41-41v-203.622c0-22.607 18.393-41 41-41h307.528c0.329 0 0.651 0.025 0.974 0.049l39.444-41.981c2.559-2.723 6.013-4.098 9.477-4.098 3.191 0 6.39 1.168 8.899 3.526 5.232 4.916 5.489 13.143 0.572 18.376l-323.583 344.396zM83.981 347.461h64.615l48.692-51.824h-128.307v36.824c0 8.271 6.729 15 15 15zM83.981 113.839c-8.271 0-15 6.729-15 15v140.798h152.736l146.383-155.798h-284.119zM422.123 373.461h-193.586c-7.18 0-13-5.82-13-13s5.82-13 13-13h193.586c8.271 0 15-6.729 15-15v-36.824h-134.495c-7.18 0-13-5.82-13-13s5.82-13 13-13h134.495v-164.263c0-7.18 5.82-13 13-13s13 5.82 13 13v227.087c0 22.607-18.393 41-41 41zM95.537 166.122h26v-26h-26v26zM135.537 166.122h26v-26h-26v26zM175.537 166.122h26v-26h-26v26zM215.537 166.122h26v-26h-26v26z" />
<glyph unicode="&#xe915;" glyph-name="shengji" d="M242.624 115.453h-166.413c-8.271 0-15 6.729-15 15v140.798h368.142v-5.418c0-7.18 5.82-13 13-13s13 5.82 13 13v68.242c0 22.607-18.392 41-41 41h-338.142c-22.607 0-41-18.393-41-41v-203.622c0-22.607 18.393-41 41-41h166.413c7.18 0 13 5.82 13 13 0 7.179-5.82 13-13 13zM76.211 349.075h338.142c8.271 0 15-6.729 15-15v-36.824h-368.142v36.824c0 8.271 6.729 15 15 15zM87.767 167.736h26v-26h-26v26zM127.767 167.736h26v-26h-26v26zM167.767 167.736h26v-26h-26v26zM207.767 167.736h26v-26h-26v26zM419.050 80.145h-88.175c-5.523 0-10-4.477-10-10s4.477-10 10-10h88.175c5.523 0 10 4.477 10 10s-4.477 10-10 10zM470.29 169.585l-88.189 75.46c-3.755 3.212-9.292 3.202-13.033-0.026l-87.48-75.459c-3.165-2.729-4.298-7.139-2.842-11.057 1.456-3.917 5.194-6.516 9.373-6.516h34.739v-20.96c0-5.523 4.477-10 10-10s10 4.477 10 10v30.96c0 5.523-4.477 10-10 10h-17.835l60.604 52.276 61.094-52.276h-17.671c-5.523 0-10-4.477-10-10v-49.535h-76.191c-5.523 0-10-4.477-10-10s4.477-10 10-10h86.191c5.523 0 10 4.477 10 10v49.535h34.739c4.187 0 7.93 2.607 9.38 6.535 1.451 3.927 0.302 8.342-2.879 11.063z" />
<glyph unicode="&#xe916;" glyph-name="sp" d="M254.3 221.3h-143c-1.1 0-2 0.9-2 2v10c0 1.1 0.9 2 2 2h142.9c1.1 0 2-0.9 2-2v-10c0.1-1.1-0.8-2-1.9-2zM185.3 125.6h-73.9c-1.1 0-2 0.9-2 2v10c0 1.1 0.9 2 2 2h73.9c1.1 0 2-0.9 2-2v-10c0-1.2-0.9-2-2-2zM254.3 173.2h-143c-1.1 0-2 0.9-2 2v10c0 1.1 0.9 2 2 2h142.9c1.1 0 2-0.9 2-2v-10c0.1-1.1-0.8-2-1.9-2zM454 414h-404c-15.5 0-28-12.5-28-28v-324c0-15.5 12.5-28 28-28h196.4c5.5 0 10 4.5 10 10v6c0 5.5-4.5 10-10 10h-196.4c-1.1 0-2 0.9-2 2v278h408v-68.7c0-5.5 4.5-10 10-10h6c5.5 0 10 4.5 10 10v114.7c0 15.5-12.5 28-28 28zM48 352v34c0 1.1 0.9 2 2 2h404c1.1 0 2-0.9 2-2v-34h-408zM78.5 379.7c-5.5 0-10-4.5-10-10s4.5-10 10-10c5.5 0 10 4.5 10 10s-4.5 10-10 10v0zM120.5 379.7c-5.5 0-10-4.5-10-10s4.5-10 10-10c5.5 0 10 4.5 10 10s-4.5 10-10 10v0zM163.2 379.7c-5.5 0-10-4.5-10-10s4.5-10 10-10c5.5 0 10 4.5 10 10s-4.5 10-10 10v0zM391.4 94.9c-7.2 0-13-5.8-13-13s5.8-13 13-13 13 5.8 13 13c0 7.2-5.9 13-13 13v0zM481.4 144h-30v64.1c0 18.4-14.9 33.2-33.2 33.2h-53.5c-18.4 0-33.2-14.9-33.2-33.2v-64.1h-30c-11 0-20-9-20-20v-70c0-11 9-20 20-20h180c11 0 20 9 20 20v70c-0.1 11-9.1 20-20.1 20zM351.4 208.1c0 7.3 5.9 13.2 13.2 13.2h53.5c7.3 0 13.2-5.9 13.2-13.2v-72.4h-80v72.4zM481.4 54h-180v70h180v-70z" />
<glyph unicode="&#xe917;" glyph-name="tingyong" d="M250.413 115.453h-166.413c-8.271 0-15 6.729-15 15v140.798h368.142v-5.418c0-7.18 5.82-13 13-13s13 5.82 13 13v68.242c0 22.607-18.393 41-41 41h-338.142c-22.607 0-41-18.393-41-41v-203.622c0-22.607 18.393-41 41-41h166.413c7.18 0 13 5.82 13 13 0 7.179-5.82 13-13 13zM84 349.075h338.142c8.271 0 15-6.729 15-15v-36.824h-368.142v36.824c0 8.271 6.729 15 15 15zM95.556 167.736h26v-26h-26v26zM135.556 167.736h26v-26h-26v26zM175.556 167.736h26v-26h-26v26zM215.556 167.736h26v-26h-26v26zM466.233 217.224c-0.227 0.282-0.467 0.556-0.729 0.818s-0.535 0.502-0.817 0.729c-19.034 18.647-45.078 30.165-73.766 30.165-58.159 0-105.475-47.316-105.475-105.475 0-28.686 11.517-54.73 30.162-73.763 0.227-0.282 0.468-0.557 0.73-0.819s0.537-0.504 0.819-0.73c19.034-18.646 45.077-30.162 73.763-30.162 58.159 0 105.475 47.316 105.475 105.475 0.002 28.685-11.515 54.729-30.162 73.762zM390.922 228.935c19.969 0 38.346-6.902 52.912-18.421l-119.966-119.966c-11.518 14.566-18.421 32.943-18.421 52.912 0 47.131 38.344 85.475 85.475 85.475zM390.922 57.985c-19.969 0-38.345 6.902-52.911 18.421l119.966 119.966c11.518-14.566 18.42-32.942 18.42-52.912 0-47.131-38.344-85.475-85.475-85.475z" />
<glyph unicode="&#xe918;" glyph-name="warning" d="M246.4 309.8h19c3.4 0 6.2-2.8 6-6.4l-4.8-78.6c0-1.8-1.6-3.2-3.4-3.2h-14.6c-1.8 0-3.2 1.4-3.4 3.2l-4.8 78.6c-0.2 3.4 2.6 6.4 6 6.4zM256 170.8c-8.8 0-15.8 7-15.8 15.8s7 15.8 15.8 15.8c8.8 0 15.8-7 15.8-15.8 0-8.6-7-15.8-15.8-15.8z" />
</font>
</defs>
</svg>
